性感美腿高跟小姐姐 收藏

[视频名称] : IMG_4385.MOV --> 套图下载
[视频尺寸] : 1920x1080
[视频大小] : 1V/277.3M
[视频时长] : 00:00:12
[视频编码] :
Stream #0:0(eng): Video: h264 (High) (avc1 / 0x31637661), yuvj420p(pc, bt709), 1920x1080, 177836 kb/s, 50 fps, 50 tbr, 50k tbn, 100k tbc (default)
Stream #0:1(eng): Audio: pcm_s16le (sowt / 0x74776F73), 48000 Hz, stereo, s16, 1536 kb/s (default)
[下载方式] : 百度网盘
[下载地址] : 点此获取下载地址 (售价:20积分)
下载包内为原版高清视频,绝不含第三方水印!
[在线观看] : 第1段
[视频预览] : 性感美腿高跟小姐姐 第1张
性感美腿高跟小姐姐 第2张
性感美腿高跟小姐姐 第3张
性感美腿高跟小姐姐 第4张
性感美腿高跟小姐姐 第5张

裙装 短裙 3A 四九城嘎 街拍

有用 (0)

评论加载中...